Buscar
 
 

Resultados por:
 


Rechercher Búsqueda avanzada

Últimos temas
» Cómo y dónde levear.
Miér Oct 28, 2015 11:49 pm por Admin

»  Pro Evolution Soccer 2016 [PC][Español][RELOADED]
Miér Oct 28, 2015 11:42 pm por Admin

»  Aquí les tengo un cliente de World Of Warcraft
Miér Oct 28, 2015 11:41 pm por Admin

» Windows 10 Enterprise TP [Es] [x32x64]
Miér Oct 28, 2015 11:39 pm por Admin

» Windows Wolf 7 SP1 [v.0.9 FIX 1] [Es] [x64]
Miér Oct 28, 2015 11:38 pm por Admin

» Windows 7 SP1 Angry Birds v2015 [Es] [+WPI] [x86]
Miér Oct 28, 2015 11:37 pm por Admin

» Windows 7 Eclipse Sp1 [Esp] [p/Pcs bajo recursos]
Miér Oct 28, 2015 11:36 pm por Admin

» Todos Los Parches De Seguridad Microsoft Desde 2006 [Imagen ISO]
Miér Oct 28, 2015 11:34 pm por Admin

» Windows Server 2012 R2 [x64 Bits][ISO][Español/Inglés]
Miér Oct 28, 2015 11:34 pm por Admin

Diciembre 2016
LunMarMiérJueVieSábDom
   1234
567891011
12131415161718
19202122232425
262728293031 

Calendario Calendario

Compañeros

Crear foro




Perder la raz�n (2013) [DVDRip][Castellano AC3 5.1][Drama]

Ver el tema anterior Ver el tema siguiente Ir abajo

Perder la raz�n (2013) [DVDRip][Castellano AC3 5.1][Drama]

Mensaje por Admin el Sáb Dic 07, 2013 10:47 am





Cita:
T�tulo original
� perdre la raison (Our Children)
A�o
2012
Duraci�n
110 min.
Pa�s
B�lgica B�lgica
Director
Joachim Lafosse
Gui�n
Thomas Bidegain, Joachim Lafosse, Matthieu Reynaert
M�sica
Adriano Giardina
Fotograf�a
Jean-Fran�ois Hensgens
Reparto
Tahar Rahim, Niels Arestrup, �milie Dequenne, St�phane Bissot, Mounia Raoui, Redouane Behache, Baya Belal, Nathalie Boutefeu, Yannick Renier
Productora
Coproducci�n B�lgica-Luxemburgo-Francia-Suiza; Versus Production / Samsa Film / MK2 Productions
G�nero
Drama | Drama rom�ntico. Familia
Sinopsis
Un generoso m�dico lleva a B�lgica a un joven marroqu�, a quien educa como si fuera su hijo. Cuando el joven se enamora y decide fundar una familia, su esposa se encuentra encerrada en un clima afectivo irrespirable que tendr� un desarrollo insidioso. Con la llegada de los hijos, la pareja se hace cada vez m�s dependiente del m�dico. El altruismo sin l�mites del doctor se convierte en poder. (FILMAFFINITY)



Spoiler:

General

Format : AVI
Format/Info : Audio Video Interleave
File size : 1.45 GiB
Duration : 1h 51mn
Overall bit rate : 1 865 Kbps
Writing application : VirtualDubMod 1.5.10.2 (build 2542/release)
Writing library : VirtualDubMod build 2542/release

Video
ID : 0
Format : MPEG-4 Visual
Format profile : Advanced Simple@L5
Format settings, BVOP : 2
Format settings, QPel : No
Format settings, GMC : No warppoints
Format settings, Matrix : Default (H.263)
Codec ID : XVID
Codec ID/Hint : XviD
Duration : 1h 51mn
Bit rate : 1 473 Kbps
Width : 640 pixels
Height : 272 pixels
Display aspect ratio : 2.35:1
Frame rate : 23.976 fps
Color space : YUV
Chroma subsampling : 4:2:0
Bit depth : 8 bits
Scan type : Progressive
Compression mode : Lossy
Bits/(Pixel*Frame) : 0.353
Stream size : 1.14 GiB (79%)
Writing library : XviD 1.2.1 (UTC 2008-12-04)

Audio
ID : 1
Format : AC-3
Format/Info : Audio Coding 3
Mode extension : CM (complete main)
Format settings, Endianness : Big
Codec ID : 2000
Duration : 1h 50mn
Bit rate mode : Constant
Bit rate : 384 Kbps
Channel(s) : 6 channels
Channel positions : Front: L C R, Side: L R, LFE
Sampling rate : 48.0 KHz
Bit depth : 16 bits
Compression mode : Lossy
Delay relative to video : 100ms
Stream size : 304 MiB (21%)
Alignment : Split accross interleaves
Interleave, duration : 42 ms (1.00 video frame)
Interleave, preload duration : 500 ms

*** LINKS INTERCAMBIABLES - DESCARGAS A TOPE ***





Código:
http://binbox.io/9or1e
PASS: #ecxquST1

Admin
Admin

Mensajes : 1514
Puntos : 4545
Reputación : 4
Fecha de inscripción : 01/06/2013

Ver perfil de usuario http://elokopila.foro-blog.es

Volver arriba Ir abajo

Ver el tema anterior Ver el tema siguiente Volver arriba

- Temas similares

 
Permisos de este foro:
No puedes responder a temas en este foro.