Buscar
 
 

Resultados por:
 


Rechercher Búsqueda avanzada

Últimos temas
» Cómo y dónde levear.
Miér Oct 28, 2015 11:49 pm por Admin

»  Pro Evolution Soccer 2016 [PC][Español][RELOADED]
Miér Oct 28, 2015 11:42 pm por Admin

»  Aquí les tengo un cliente de World Of Warcraft
Miér Oct 28, 2015 11:41 pm por Admin

» Windows 10 Enterprise TP [Es] [x32x64]
Miér Oct 28, 2015 11:39 pm por Admin

» Windows Wolf 7 SP1 [v.0.9 FIX 1] [Es] [x64]
Miér Oct 28, 2015 11:38 pm por Admin

» Windows 7 SP1 Angry Birds v2015 [Es] [+WPI] [x86]
Miér Oct 28, 2015 11:37 pm por Admin

» Windows 7 Eclipse Sp1 [Esp] [p/Pcs bajo recursos]
Miér Oct 28, 2015 11:36 pm por Admin

» Todos Los Parches De Seguridad Microsoft Desde 2006 [Imagen ISO]
Miér Oct 28, 2015 11:34 pm por Admin

» Windows Server 2012 R2 [x64 Bits][ISO][Español/Inglés]
Miér Oct 28, 2015 11:34 pm por Admin

Diciembre 2016
LunMarMiérJueVieSábDom
   1234
567891011
12131415161718
19202122232425
262728293031 

Calendario Calendario

Compañeros

Crear foro




Thor El mundo oscuro (2013) [HDTS-SCR (R6)][Castellano MiC][Accion]

Ver el tema anterior Ver el tema siguiente Ir abajo

Thor El mundo oscuro (2013) [HDTS-SCR (R6)][Castellano MiC][Accion]

Mensaje por Admin el Sáb Dic 07, 2013 10:51 am





Cita:
T�tulo original
Thor: The Dark World (Thor 2)
A�o
2013
Duraci�n
112 min.
Pa�s
Estados Unidos Estados Unidos
Director
Alan Taylor
Gui�n
Christopher Yost, Christopher Markus, Stephen McFeely, Robert Rodat, Don Payne (C�mic: Jack Kirby, Stan Lee, Larry Lieber)
M�sica
Brian Tyler
Fotograf�a
Kramer Morgenthau
Reparto
Chris Hemsworth, Natalie Portman, Anthony Hopkins, Tom Hiddleston, Christopher Eccleston, Idris Elba, Kat Dennings, Adewale Akinnuoye-Agbaje, Jaimie Alexander, Tadanobu Asano, Stellan Skarsg�rd, Ray Stevenson, Alice Krige, Zachary Levi, Chris O'Dowd, Stan Lee
Productora
Marvel Entertainment / Marvel Studios
G�nero
Fant�stico. Acci�n. Aventuras | Mitolog�a. Superh�roes. C�mic. Marvel Comics. Secuela. 3-D
Web Oficial
Marvel's Thor: The Dark World | Official Site
Sinopsis
En "Thor: El mundo oscuro", Thor lucha por restablecer el orden en todo el cosmos? pero una antigua raza liderada por el vengativo Malekith regresa para volver a sumir al universo en la oscuridad. Thor se enfrenta a un enemigo al que ni siquiera Od�n y Asgard pueden hacer frente, y deber� embarcarse en su viaje m�s peligroso a la vez que personal. En este viaje se reunir� con Jane Foster y le obligar� a sacrificarlo todo para salvar el mundo. (FILMAFFINITY)



Spoiler:

General

Format : AVI
Format/Info : Audio Video Interleave
File size : 1.49 GiB
Duration : 1h 41mn
Overall bit rate : 2 114 Kbps
Writing application : VirtualDubMod 1.5.10.2 (build 2542/release)
Writing library : VirtualDubMod build 2542/release

Video
ID : 0
Format : MPEG-4 Visual
Format profile : Advanced Simple@L5
Format settings, BVOP : 2
Format settings, QPel : No
Format settings, GMC : No warppoints
Format settings, Matrix : Default (H.263)
Codec ID : XVID
Codec ID/Hint : XviD
Duration : 1h 41mn
Bit rate : 1 911 Kbps
Width : 720 pixels
Height : 304 pixels
Display aspect ratio : 2.35:1
Frame rate : 29.970 fps
Color space : YUV
Chroma subsampling : 4:2:0
Bit depth : 8 bits
Scan type : Progressive
Compression mode : Lossy
Bits/(Pixel*Frame) : 0.291
Stream size : 1.35 GiB (90%)
Writing library : XviD 1.2.1 (UTC 2008-12-04)

Audio
ID : 1
Format : MPEG Audio
Format version : Version 1
Format profile : Layer 3
Mode : Joint stereo
Mode extension : MS Stereo
Codec ID : 55
Codec ID/Hint : MP3
Duration : 1h 41mn
Bit rate mode : Constant
Bit rate : 192 Kbps
Channel(s) : 2 channels
Sampling rate : 48.0 KHz
Compression mode : Lossy
Stream size : 139 MiB (9%)
Alignment : Aligned on interleaves
Interleave, duration : 33 ms (1.00 video frame)
Interleave, preload duration : 504 ms
Writing library : LAME3.99r
Encoding settings : -m j -V 4 -q 3 -lowpass 18.6 -b 192

*** LINKS INTERCAMBIABLES - DESCARGAS A TOPE ***





Código:
http://binbox.io/cSYHV
PASS: #MXTabeMt

Admin
Admin

Mensajes : 1514
Puntos : 4545
Reputación : 4
Fecha de inscripción : 01/06/2013

Ver perfil de usuario http://elokopila.foro-blog.es

Volver arriba Ir abajo

Ver el tema anterior Ver el tema siguiente Volver arriba

- Temas similares

 
Permisos de este foro:
No puedes responder a temas en este foro.