Buscar
 
 

Resultados por:
 


Rechercher Búsqueda avanzada

Últimos temas
» Cómo y dónde levear.
Miér Oct 28, 2015 11:49 pm por Admin

»  Pro Evolution Soccer 2016 [PC][Español][RELOADED]
Miér Oct 28, 2015 11:42 pm por Admin

»  Aquí les tengo un cliente de World Of Warcraft
Miér Oct 28, 2015 11:41 pm por Admin

» Windows 10 Enterprise TP [Es] [x32x64]
Miér Oct 28, 2015 11:39 pm por Admin

» Windows Wolf 7 SP1 [v.0.9 FIX 1] [Es] [x64]
Miér Oct 28, 2015 11:38 pm por Admin

» Windows 7 SP1 Angry Birds v2015 [Es] [+WPI] [x86]
Miér Oct 28, 2015 11:37 pm por Admin

» Windows 7 Eclipse Sp1 [Esp] [p/Pcs bajo recursos]
Miér Oct 28, 2015 11:36 pm por Admin

» Todos Los Parches De Seguridad Microsoft Desde 2006 [Imagen ISO]
Miér Oct 28, 2015 11:34 pm por Admin

» Windows Server 2012 R2 [x64 Bits][ISO][Español/Inglés]
Miér Oct 28, 2015 11:34 pm por Admin

Diciembre 2016
LunMarMiérJueVieSábDom
   1234
567891011
12131415161718
19202122232425
262728293031 

Calendario Calendario

Compañeros

Crear foro




La espada del dragon (2011) [DVDRip][Castellano AC3 5.1][Drama]

Ver el tema anterior Ver el tema siguiente Ir abajo

La espada del dragon (2011) [DVDRip][Castellano AC3 5.1][Drama]

Mensaje por Admin el Sáb Dic 07, 2013 10:52 am





Cita:
T�tulo original
Long men fei jia (The Flying Swords of Dragon Gate)
A�o
2011
Duraci�n
121 min.
Pa�s
China China
Director
Tsui Hark
Gui�n
Tsui Hark
M�sica
Wai Lap Wu
Fotograf�a
Sung Fai Choi
Reparto
Jet Li, Chen Kun, Zhou Xun, Fan Siu-wong, Kwai Lun-mei, Mavis Fan, Li Yu-chun
Productora
Beijing Liangzi Group / Beijing Poly-bona Film Publishing Company / Bona International Film Group
G�nero
Acci�n. Aventuras | Artes marciales. Remake. 3-D
Sinopsis
"Flying Swords of Dragon Gate" es un wu-xia protagonizado por Jet Li en el que se nos narra al historia de Chow Wai-on, un rebelde que lucha contra Tsao Sui San, el malvado l�der eunuco del Lado Este, que intenta forjar su propio reino mediante la destrucci�n de los clanes rebeldes. La acci�n les llevar� al desierto, en la posada de la "Puerta del Drag�n", propiedad de la bella Jade King, interpretada por Zhou Xun (The Message). La pel�cula, que llegar� a finales de 2011 a los cines de toda China, es un remake de la pel�cula de 1992, "New Dragon Gate Inn" de Raymond Lee, que a su vez era un remake del cl�sico de 1967 de King Hu, Dragon Inn. (FILMAFFINITY)



Spoiler:

General

Format : AVI
Format/Info : Audio Video Interleave
File size : 1.50 GiB
Duration : 2h 2mn
Overall bit rate : 1 754 Kbps
Writing application : VirtualDubMod 1.5.10.2 (build 2542/release)
Writing library : VirtualDubMod build 2542/release

Video
ID : 0
Format : MPEG-4 Visual
Format profile : Advanced Simple@L5
Format settings, BVOP : 2
Format settings, QPel : No
Format settings, GMC : No warppoints
Format settings, Matrix : Default (H.263)
Codec ID : XVID
Codec ID/Hint : XviD
Duration : 2h 2mn
Bit rate : 1 297 Kbps
Width : 640 pixels
Height : 272 pixels
Display aspect ratio : 2.35:1
Frame rate : 23.976 fps
Color space : YUV
Chroma subsampling : 4:2:0
Bit depth : 8 bits
Scan type : Progressive
Compression mode : Lossy
Bits/(Pixel*Frame) : 0.311
Stream size : 1.11 GiB (74%)
Writing library : XviD 1.2.1 (UTC 2008-12-04)

Audio
ID : 1
Format : AC-3
Format/Info : Audio Coding 3
Mode extension : CM (complete main)
Format settings, Endianness : Big
Codec ID : 2000
Duration : 2h 2mn
Bit rate mode : Constant
Bit rate : 448 Kbps
Channel(s) : 6 channels
Channel positions : Front: L C R, Side: L R, LFE
Sampling rate : 48.0 KHz
Bit depth : 16 bits
Compression mode : Lossy
Stream size : 392 MiB (26%)
Alignment : Split accross interleaves
Interleave, duration : 42 ms (1.00 video frame)
Interleave, preload duration : 500 ms

*** LINKS INTERCAMBIABLES - DESCARGAS A TOPE ***




* MUY BUENO Y CON DESCARGAS A TOPE! *
Código:
http://www.rocketfile.net/7b0t7dodkyw4/laesp.drag.papianton.part1.rar.html
http://www.rocketfile.net/tiexalyoe490/laesp.drag.papianton.part2.rar.html
http://www.rocketfile.net/a0hoami4tlxg/laesp.drag.papianton.part3.rar.html

* DESCARGAS A TOPE Y SIMULTANEAS! *
Código:
http://4upfiles.com/2tu2mv3q6yxi
http://4upfiles.com/jowancpidz9n
http://4upfiles.com/xwl22supwker

* MUY ESTABLE CON BUENA VELOCIDAD DE DESCARGA *
Código:
http://junocloud.me/nzvbr3wprhem/laesp.drag.papianton.part1.rar.html
http://junocloud.me/rkcndbyyvux2/laesp.drag.papianton.part2.rar.html
http://junocloud.me/qnn99wcmziyy/laesp.drag.papianton.part3.rar.html

Código:
http://rapidgator.net/file/8599d157d0706fe2c1c4d1d02397797a/laesp.drag.papianton.part1.rar.html
http://rapidgator.net/file/6b3980637c4179be39cb8f29d9f01957/laesp.drag.papianton.part2.rar.html
http://rapidgator.net/file/2956223bfbf376ee8c274b57bcef2bbf/laesp.drag.papianton.part3.rar.html


Código:
http://turbobit.net/4h6jl2aycwoj.html
http://turbobit.net/ixnkudj3joar.html
http://turbobit.net/r5zla6dys0i8.html


Código:
http://ul.to/lac3gr3e
http://ul.to/7c0k7kuj
http://ul.to/lc43vcps

Admin
Admin

Mensajes : 1514
Puntos : 4545
Reputación : 4
Fecha de inscripción : 01/06/2013

Ver perfil de usuario http://elokopila.foro-blog.es

Volver arriba Ir abajo

Ver el tema anterior Ver el tema siguiente Volver arriba

- Temas similares

 
Permisos de este foro:
No puedes responder a temas en este foro.