Buscar
 
 

Resultados por:
 


Rechercher Búsqueda avanzada

Últimos temas
» Cómo y dónde levear.
Miér Oct 28, 2015 11:49 pm por Admin

»  Pro Evolution Soccer 2016 [PC][Español][RELOADED]
Miér Oct 28, 2015 11:42 pm por Admin

»  Aquí les tengo un cliente de World Of Warcraft
Miér Oct 28, 2015 11:41 pm por Admin

» Windows 10 Enterprise TP [Es] [x32x64]
Miér Oct 28, 2015 11:39 pm por Admin

» Windows Wolf 7 SP1 [v.0.9 FIX 1] [Es] [x64]
Miér Oct 28, 2015 11:38 pm por Admin

» Windows 7 SP1 Angry Birds v2015 [Es] [+WPI] [x86]
Miér Oct 28, 2015 11:37 pm por Admin

» Windows 7 Eclipse Sp1 [Esp] [p/Pcs bajo recursos]
Miér Oct 28, 2015 11:36 pm por Admin

» Todos Los Parches De Seguridad Microsoft Desde 2006 [Imagen ISO]
Miér Oct 28, 2015 11:34 pm por Admin

» Windows Server 2012 R2 [x64 Bits][ISO][Español/Inglés]
Miér Oct 28, 2015 11:34 pm por Admin

Diciembre 2016
LunMarMiérJueVieSábDom
   1234
567891011
12131415161718
19202122232425
262728293031 

Calendario Calendario

Compañeros

Crear foro




Thor 2: El mundo oscuro (2013) [DVDRip] [Castellano] [1 Link] [PL]

Ver el tema anterior Ver el tema siguiente Ir abajo

Thor 2: El mundo oscuro (2013) [DVDRip] [Castellano] [1 Link] [PL]

Mensaje por Admin el Miér Feb 19, 2014 5:01 pm


Sinopsis:
Thor lucha por restablecer el orden en todo el cosmos, pero una antigua raza liderada por el vengativo Malekith regresa para volver a sumir al universo en la oscuridad. Thor se enfrenta a un enemigo al que ni siquiera Odín y Asgard pueden hacer frente, y deberá embarcarse en su viaje más peligroso a la vez que personal. En este viaje se reunirá con Jane Foster y se verá obligado a sacrificarlo todo para salvar el mundo.

Ficha Técnica:
Película: Thor: El mundo oscuro.
Título original: Thor: The dark world.
AKA: Thor 2.
Dirección: Alan Taylor.
País: USA.
Año: 2013.
Duración: 113 min.
Género: Acción, fantástico.
Interpretación: Chris Hemsworth (Thor), Natalie Portman (Jane Foster), Tom Hiddleston (Loki), Anthony Hopkins (Odin), Jaimie Alexander (Sif), Idris Elba (Heimdall), Stellan Skarsgård (Dr. Erik Selving), Rene Russo (Frigga), Christopher Eccleston (Malekith), Zachary Levi (Fandral), Adewale Akinnuoye-Agbaje (Algrim / Kurse), Kat Dennings (Darcy), Clive Russell (Tyr).
Guion: Christopher Yost, Christopher Markus y Stephen McFeely, basado en un argumento de Don Payne y Robert Rodat, a partir del cómic de Stan Lee, Larry Lieber y Jack Kirby.
Producción: Kevin Feige.
Montaje: Dan Lebental y Wyatt Smith.
Diseño de producción: Charles Wood.
Vestuario: Wendy Partridge.
Distribuidora: The Walt Disney Company Spain.
Estreno en USA: 8 Noviembre 2013.
Estreno en España: 31 Octubre 2013.

Datos Técnicos:
DVDRip | AVI | 1.36 GB | 720x304 | Castellano

Capturas:


Mediainfo:
Código:
General
Complete name : Thor.El Mundo Oscuro.DVDR.Castellano(peliculastomas01).avi
Format : AVI
Format/Info : Audio Video Interleave
File size : 1.36 GiB
Duration : 1h 52mn
Overall bit rate : 1 743 Kbps
Writing application : VirtualDubMod 1.5.10.2 (build 2540/release)
Writing library : VirtualDubMod build 2540/release

Video
ID : 0
Format : MPEG-4 Visual
Format profile : Advanced Simple@L5
Format settings, BVOP : 2
Format settings, QPel : No
Format settings, GMC : No warppoints
Format settings, Matrix : Default (H.263)
Codec ID : XVID
Codec ID/Hint : XviD
Duration : 1h 52mn
Bit rate : 1 350 Kbps
Width : 720 pixels
Height : 304 pixels
Display aspect ratio : 2.35:1
Frame rate : 23.976 fps
Color space : YUV
Chroma subsampling : 4:2:0
Bit depth : 8 bits
Scan type : Progressive
Compression mode : Lossy
Bits/(Pixel*Frame) : 0.257
Stream size : 1.06 GiB (77%)
Writing library : XviD 1.2.1 (UTC 2008-12-04)

Audio
ID : 1
Format : AC-3
Format/Info : Audio Coding 3
Mode extension : CM (complete main)
Format settings, Endianness : Big
Codec ID : 2000
Duration : 1h 52mn
Bit rate mode : Constant
Bit rate : 384 Kbps
Channel(s) : 6 channels
Channel positions : Front: L C R, Side: L R, LFE
Sampling rate : 48.0 KHz
Bit depth : 16 bits
Compression mode : Lossy
Stream size : 308 MiB (22%)
Alignment : Split accross interleaves
Interleave, duration : 42 ms (1.00 video frame)
Interleave, preload duration : 500 ms


Contraseña / Password:

Código:
peliculastomas01


Descargar / Download:


FreakShare | FileOm | FireDriver(PutLocker)

Código:
http://goldpaste.us/p/a9e60b0f

Admin
Admin

Mensajes : 1514
Puntos : 4545
Reputación : 4
Fecha de inscripción : 01/06/2013

Ver perfil de usuario http://elokopila.foro-blog.es

Volver arriba Ir abajo

Ver el tema anterior Ver el tema siguiente Volver arriba

- Temas similares

 
Permisos de este foro:
No puedes responder a temas en este foro.