Buscar
 
 

Resultados por:
 


Rechercher Búsqueda avanzada

Últimos temas
» Cómo y dónde levear.
Miér Oct 28, 2015 11:49 pm por Admin

»  Pro Evolution Soccer 2016 [PC][Español][RELOADED]
Miér Oct 28, 2015 11:42 pm por Admin

»  Aquí les tengo un cliente de World Of Warcraft
Miér Oct 28, 2015 11:41 pm por Admin

» Windows 10 Enterprise TP [Es] [x32x64]
Miér Oct 28, 2015 11:39 pm por Admin

» Windows Wolf 7 SP1 [v.0.9 FIX 1] [Es] [x64]
Miér Oct 28, 2015 11:38 pm por Admin

» Windows 7 SP1 Angry Birds v2015 [Es] [+WPI] [x86]
Miér Oct 28, 2015 11:37 pm por Admin

» Windows 7 Eclipse Sp1 [Esp] [p/Pcs bajo recursos]
Miér Oct 28, 2015 11:36 pm por Admin

» Todos Los Parches De Seguridad Microsoft Desde 2006 [Imagen ISO]
Miér Oct 28, 2015 11:34 pm por Admin

» Windows Server 2012 R2 [x64 Bits][ISO][Español/Inglés]
Miér Oct 28, 2015 11:34 pm por Admin

Diciembre 2016
LunMarMiérJueVieSábDom
   1234
567891011
12131415161718
19202122232425
262728293031 

Calendario Calendario

Compañeros

Crear foro




Divergent (2014) [TS Screener HQ/Subtitulada] [Ciencia ficción] [1 Link] [PL]

Ver el tema anterior Ver el tema siguiente Ir abajo

Divergent (2014) [TS Screener HQ/Subtitulada] [Ciencia ficción] [1 Link] [PL]

Mensaje por Admin el Lun Mar 31, 2014 5:21 pm


Sinopsis:
En el Chicago distópico de Beatrice Prior, la sociedad está dividida en cinco facciones, cada una de ellas dedicada a cultivar una virtud concreta: Verdad (los sinceros), Abnegación (los altruistas), Osadía (los valientes), Cordialidad (los pacíficos) y Erudición (los inteligentes). En una ceremonia anual, todos los chicos de dieciséis años deben decidir a qué facción dedicarán el resto de sus vidas. Beatrice tiene que elegir entre quedarse con su familia… y ser quien realmente es, no puede tener ambas cosas. Así que toma una decisión que sorprenderá a todo el mundo, incluida ella. Durante el competitivo proceso de iniciación posterior, Beatrice decide pasar a llamarse Tris e intenta averiguar quiénes son sus verdaderos amigos, y dónde encaja en su vida enamorarse de un chico que unas veces resulta fascinante y otras veces la exaspera. Sin embargo, Tris también tiene un secreto, un secreto que no ha contado a nadie para no poner su vida en peligro. Cuando descubre un conflicto que amenaza con desbaratar la, en apariencia, perfecta sociedad en la que vive, también averigua que su secreto podría ser la clave para salvar a los que ama o… para acabar muerta.

Ficha Técnica:
Título original: Divergent
Otros Títulos : Divergente
Año: 2014
Duración: 139 min.
País: Estados Unidos
Director: Neil Burger
Guión: Evan Daugherty, Vanessa Taylor (Libro: Veronica Roth)
Música: Junkie XL
Fotografía: Alwin H. Küchler
Reparto: Shailene Woodley, Theo James, Kate Winslet, Tony Goldwyn, Ray Stevenson, Maggie Q, Mekhi Phifer, Jai Courtney, Miles Teller, Zoë Kravitz
Productora: Summit Entertainment / Red Wagon Entertainment
Género: Ciencia ficción. Acción. Aventuras
Estreno en USA: 21/03/2014
Estreno en España: 30/04/2014

Trailer:
http://www.youtube.com/watch?v=e8UHUAdBl84">http://www.youtube.com/watch?v=e8UHUAdBl84" type="application/x-shockwave-flash" width="425" height="350">

Mira los primeros 3 minutos de la pelicula, antes de descargarla:
Código:
http://played.to/9biy8c61rfr7
Datos Técnicos:
TS Screener HQ | AVI | 1.71 GB | 720x314 | Sub Español

Capturas:


Mediainfo:
Código:
General
Complete name : Divergent.TSHQ.VOSE(peliculastomas01).avi
Format : AVI
Format/Info : Audio Video Interleave
Format profile : OpenDML
File size : 1.71 GiB
Duration : 2h 11mn
Overall bit rate : 1 857 Kbps
Writing application : Lavf53.32.100

Video
ID : 0
Format : MPEG-4 Visual
Format profile : Advanced Simple@L5
Format settings, BVOP : 2
Format settings, QPel : No
Format settings, GMC : No warppoints
Format settings, Matrix : Default (H.263)
Muxing mode : Packed bitstream
Codec ID : XVID
Codec ID/Hint : XviD
Duration : 2h 11mn
Bit rate : 1 524 Kbps
Width : 720 pixels
Height : 314 pixels
Display aspect ratio : 2.25:1
Frame rate : 23.976 fps
Color space : YUV
Chroma subsampling : 4:2:0
Bit depth : 8 bits
Scan type : Progressive
Compression mode : Lossy
Bits/(Pixel*Frame) : 0.281
Stream size : 1.40 GiB (82%)
Writing library : XviD 64

Audio
ID : 1
Format : MPEG Audio
Format version : Version 1
Format profile : Layer 3
Mode : Joint stereo
Codec ID : 55
Codec ID/Hint : MP3
Duration : 2h 11mn
Bit rate mode : Constant
Bit rate : 320 Kbps
Channel(s) : 2 channels
Sampling rate : 48.0 KHz
Compression mode : Lossy
Stream size : 301 MiB (17%)
Alignment : Aligned on interleaves
Interleave, duration : 24 ms (0.58 video frame)
Writing library : LAME3.99.5


Contraseña / Password:

Código:
peliculastomas01


Descargar / Download:


FreakShare | uploadable | FireDriver(PutLocker)

Código:
http://goo.gl/wjrGSr

Admin
Admin

Mensajes : 1514
Puntos : 4545
Reputación : 4
Fecha de inscripción : 01/06/2013

Ver perfil de usuario http://elokopila.foro-blog.es

Volver arriba Ir abajo

Ver el tema anterior Ver el tema siguiente Volver arriba

- Temas similares

 
Permisos de este foro:
No puedes responder a temas en este foro.